<?xml version="1.0" standalone="no"?>
<!DOCTYPE svg PUBLIC "-//W3C//DTD SVG 1.1//EN" "http://www.w3.org/Graphics/SVG/1.1/DTD/svg11.dtd" >
<svg xmlns="http://www.w3.org/2000/svg">
<metadata></metadata>
<defs>
<font id="panefresco_600wtregular" horiz-adv-x="1085" >
<font-face units-per-em="2048" ascent="1536" descent="-512" />
<missing-glyph horiz-adv-x="481" />
<glyph horiz-adv-x="0" />
<glyph unicode="&#xd;" horiz-adv-x="481" />
<glyph unicode=" "  horiz-adv-x="481" />
<glyph unicode="&#x09;" horiz-adv-x="481" />
<glyph unicode="&#xa0;" horiz-adv-x="481" />
<glyph unicode="!" d="M449 270h208l2 -270h-208zM449 1434h208l-6 -940h-196z" />
<glyph unicode="&#x22;" horiz-adv-x="665" d="M80 1421h186l-6 -471h-178zM401 1421h187l-6 -471h-179z" />
<glyph unicode="#" d="M10 358v164h215v316h-215v163h215v359h172v-359h283v359h172v-359h217v-163h-217v-316h217v-164h-217l2 -358h-172l-2 358h-283l2 -358h-172l-2 358h-215zM397 522h283v316h-283v-316z" />
<glyph unicode="$" d="M113 1018q0 72 21.5 134t69.5 109.5t127 76t195 34.5v246h95v-246q51 -2 105 -8t103.5 -13.5t87 -13.5t56.5 -8l-10 -164q-57 6 -115 13q-51 4 -110.5 9t-116.5 9q0 -106 -1.5 -210.5t-1.5 -211.5q70 -31 140.5 -65.5t127 -81.5t91.5 -110.5t35 -151.5 q0 -70 -18.5 -136.5t-62.5 -119t-120 -86t-193 -39.5q0 -57 1.5 -114.5t1.5 -115.5l-95 15v213q-55 2 -118.5 7t-119 12t-98.5 13t-57 11l10 165q14 -2 57.5 -7t98.5 -11t115.5 -10t111.5 -6v462q-72 27 -145.5 62t-133 82t-97 110.5t-37.5 145.5zM309 1018q0 -72 62.5 -118 t154.5 -85v383q-102 -6 -159.5 -53t-57.5 -127zM618 160q78 10 135.5 59t57.5 143q0 72 -55.5 122.5t-137.5 88.5v-413z" />
<glyph unicode="%" d="M23 1149q0 139 58 213t183 74q123 0 181.5 -74t58.5 -213q0 -141 -58.5 -217t-181.5 -76q-125 0 -183 76t-58 217zM172 1149q0 -86 18.5 -127t73.5 -41q53 0 71.5 41t18.5 127t-18.5 125t-71.5 39q-55 0 -73.5 -39t-18.5 -125zM180 78l637 1349l111 -63l-639 -1350z M594 295q0 141 58.5 215t183.5 74q123 0 181 -74t58 -215t-58.5 -217t-180.5 -76q-125 0 -183.5 76t-58.5 217zM743 295q0 -84 18.5 -126t74.5 -42q55 0 72.5 41t17.5 127t-17.5 125t-72.5 39t-74 -39t-19 -125z" />
<glyph unicode="&#x26;" horiz-adv-x="1433" d="M84 414q0 166 83 261t222 154q-33 41 -53.5 75t-31.5 68t-15 70.5t-4 83.5q0 147 98 233.5t276 86.5q190 0 283.5 -87t93.5 -247q0 -72 -17.5 -128t-53 -102t-92 -88t-136.5 -85l250 -250q6 23 14.5 55.5t16.5 68t14 72.5t10 66l189 -4q-6 -49 -17.5 -101.5t-23.5 -103.5 t-25.5 -96t-27.5 -80l252 -240l-117 -133l-234 217q-98 -111 -204.5 -163t-266.5 -52q-242 0 -362.5 117t-120.5 332zM283 416q0 -129 73.5 -200t216.5 -71q104 0 177 35t143 121l-383 393q-111 -41 -169 -107.5t-58 -170.5zM479 1102q0 -66 19.5 -118t70.5 -105l47 -48 q57 29 100.5 55.5t70 57.5t40 67t13.5 83q0 86 -43 129t-138 43q-86 0 -133 -39t-47 -125z" />
<glyph unicode="'" horiz-adv-x="204" d="M0 1419h188l-10 -479h-176z" />
<glyph unicode="(" horiz-adv-x="532" d="M49 616q0 76 8.5 157t22.5 160t31.5 153.5t35.5 142.5q43 158 101 307h209q-55 -156 -99 -315q-37 -137 -66.5 -298t-29.5 -307q0 -143 30 -296.5t66 -282.5q43 -150 99 -293h-209q-57 135 -101 283q-37 125 -67.5 280.5t-30.5 308.5z" />
<glyph unicode=")" horiz-adv-x="532" d="M49 1536h209q55 -143 98 -297q37 -131 69 -289.5t32 -312.5t-32 -312.5t-69 -287.5q-43 -152 -98 -293h-207q53 147 96 303q35 133 66 290t31 300q0 145 -31 303t-68 291q-43 156 -96 305z" />
<glyph unicode="*" d="M238 938l219 162l-213 155l71 99l213 -152l84 250l119 -39l-82 -256h262v-119h-264l82 -254l-117 -34l-84 256l-217 -162z" />
<glyph unicode="+" horiz-adv-x="987" d="M-20 475v176h419v422h181v-422h426v-176h-426v-426h-181v426h-419z" />
<glyph unicode="," horiz-adv-x="348" d="M31 -252l96 492h211l-117 -492h-190z" />
<glyph unicode="-" horiz-adv-x="901" d="M133 481v189h631v-189h-631z" />
<glyph unicode="." horiz-adv-x="507" d="M133 270h211l2 -270h-211z" />
<glyph unicode="/" d="M147 35l576 1425l192 -65l-575 -1426z" />
<glyph unicode="0" d="M35 659q0 203 33.5 340.5t98 220.5t158 118.5t214.5 35.5t215 -35.5t158.5 -118.5t98 -220.5t33.5 -340.5q0 -195 -33.5 -324.5t-99 -209.5t-160 -114t-212.5 -34q-119 0 -213.5 34t-159 113t-98 210t-33.5 325zM248 657q0 -147 18.5 -241t54 -149.5t91 -77t129.5 -21.5 t128 21.5t91 77t54 150.5t17 242q0 154 -16 255.5t-52 161t-91 84t-131 24.5t-131.5 -24.5t-91 -84t-53 -161t-17.5 -257.5z" />
<glyph unicode="1" d="M106 1063l433 289h186l2 -1352h-199l-2 1122l-327 -217z" />
<glyph unicode="2" d="M111 182l354 363q63 63 114.5 118.5t88.5 106.5t56 102.5t19 106.5q0 111 -66.5 155t-203.5 44q-55 0 -115.5 -6.5t-109.5 -14.5q-57 -8 -113 -18l-14 182q59 14 127 27q57 10 126.5 18t141.5 8q221 0 326.5 -89t105.5 -281q0 -78 -16.5 -140.5t-50 -122t-87 -120 t-124.5 -132.5l-293 -299h602l2 -190h-868z" />
<glyph unicode="3" d="M96 27l23 180q66 -10 133 -19q59 -8 131 -13t139 -5q266 2 266 217q0 59 -19 99t-53 64.5t-80 35t-99 12.5h-273v182h273q37 0 75.5 16.5t71.5 44t53.5 65.5t20.5 83q0 106 -62.5 149.5t-189.5 43.5q-68 0 -133.5 -5.5t-118.5 -11.5q-61 -8 -117 -16l-20 176 q63 14 131 25q59 10 130 17t138 7q125 0 210 -21.5t137 -66.5t76 -111.5t24 -158.5q0 -72 -20.5 -122t-50.5 -85t-61.5 -56.5t-54.5 -35.5q49 -20 89 -44t69 -61t44 -89t15 -130q0 -209 -105.5 -312.5t-340.5 -103.5q-78 0 -158 7.5t-145 17.5q-76 10 -148 25z" />
<glyph unicode="4" d="M51 233v164l371 955h219l-362 -928h405v424h199v-424h155v-191h-155v-245h-199v245h-633z" />
<glyph unicode="5" d="M88 39l23 180q72 -14 147 -24q66 -10 140.5 -17.5t142.5 -7.5q117 0 187.5 68.5t70.5 195.5q0 129 -71 181.5t-183 52.5q-55 0 -105.5 -10.5t-89.5 -22.5q-45 -14 -82 -31l-157 33l43 717h800v-193h-620l-35 -370q43 16 88 30q39 12 86 22.5t90 10.5q211 0 326 -94 t115 -316q0 -229 -120 -346.5t-337 -117.5q-78 0 -160 9t-147 19q-78 12 -152 31z" />
<glyph unicode="6" d="M59 678q0 193 38 325t107.5 214.5t170 119.5t223.5 37q66 0 133.5 -6t122.5 -12q66 -8 127 -17l-18 -182q-57 6 -119 12q-53 4 -116.5 9.5t-129.5 5.5q-166 0 -250 -101.5t-84 -300.5l30 10q30 11 76 24t101 24.5t104 11.5q227 0 343 -102.5t116 -321.5q0 -223 -126 -337 t-355 -114q-258 0 -376 182.5t-118 518.5zM262 608q0 -92 16.5 -173t50 -141.5t89 -94t135.5 -33.5q135 0 204.5 64.5t69.5 197.5q0 127 -69.5 184.5t-196.5 57.5q-53 -4 -106.5 -13.5t-96.5 -19.5q-51 -12 -96 -29z" />
<glyph unicode="7" d="M106 1161v193h848v-248l-512 -1135l-186 56l494 1087v47h-644z" />
<glyph unicode="8" d="M39 344q0 76 15.5 130t43 95t66.5 72t88 61q-49 31 -86 62t-59.5 67.5t-34 83t-11.5 105.5q0 174 132.5 264t353.5 90q109 0 200 -22.5t156.5 -66.5t101 -111.5t35.5 -155.5q0 -63 -11 -109.5t-35.5 -82t-62.5 -65.5t-91 -59q49 -29 90 -58.5t70.5 -67t45 -89 t15.5 -120.5q0 -111 -41 -184.5t-110.5 -120t-163 -66t-199.5 -19.5q-104 0 -196.5 17.5t-161 60.5t-109.5 114t-41 175zM254 385q0 -115 81 -166t212 -51q135 0 218 51t83 172q0 47 -15.5 82t-42 59.5t-63.5 42t-80 31.5h-205q-92 -29 -140 -79t-48 -142zM274 991 q0 -80 42 -127t126 -82h205q86 35 132 82t46 127q0 106 -71.5 149.5t-204.5 43.5q-129 0 -202 -42t-73 -151z" />
<glyph unicode="9" d="M55 924q0 106 34 190t97.5 142.5t150.5 88t195 29.5q260 0 379 -180t119 -518q0 -199 -37 -333t-107.5 -215t-171 -116t-227.5 -35q-66 0 -133 5.5t-123 13.5q-66 8 -127 18l19 179q55 -8 117 -15q53 -4 117.5 -8t129.5 -4q170 0 253 102.5t85 296.5l-31 -9 q-32 -9 -79 -21.5t-103.5 -22.5t-105.5 -10q-217 0 -334 102.5t-117 319.5zM260 924q0 -127 66.5 -183.5t195.5 -56.5q49 0 102.5 9t98.5 22q53 12 104 30q-2 94 -19 176.5t-52 140.5t-90.5 92t-133.5 34q-125 0 -198.5 -69.5t-73.5 -194.5z" />
<glyph unicode=":" horiz-adv-x="397" d="M104 270h209l2 -270h-209zM104 637v270h209v-270h-209z" />
<glyph unicode=";" horiz-adv-x="436" d="M35 -240l108 504h211l-141 -504h-178zM129 637v270h209v-270h-209z" />
<glyph unicode="&#x3c;" d="M127 532v201l711 412v-205l-523 -303l523 -318v-204q-35 18 -90.5 50t-120 69.5t-135 80.5t-137 83t-126 75t-102.5 59z" />
<glyph unicode="=" d="M57 285v178h949v-178h-949zM57 690v178h949v-178h-949z" />
<glyph unicode="&#x3e;" d="M127 115v204l522 318l-522 303v205l711 -412v-201q-43 -25 -102.5 -59.5t-126 -74.5t-137.5 -83t-135.5 -80.5t-119.5 -69.5t-90 -50z" />
<glyph unicode="?" horiz-adv-x="790" d="M12 1401q66 16 131 29q53 10 113.5 19t101.5 9q223 0 332 -83t109 -290q0 -90 -29 -155.5t-71 -116.5t-91 -91t-91 -77t-70.5 -72.5t-28.5 -80.5v-78h-205v84q0 68 27.5 118t69.5 92t90.5 78.5t90 77.5t69.5 88t28 111q0 104 -50.5 149t-187.5 45q-39 0 -92 -7t-102 -15 q-57 -10 -119 -23zM211 270h209l2 -270h-209z" />
<glyph unicode="@" horiz-adv-x="2017" d="M96 535q0 250 64.5 430t184.5 295.5t293 170t392 54.5q459 0 673 -217t214 -643v-35q0 -190 -25.5 -309t-72.5 -185.5t-117 -91t-156 -24.5q-90 0 -148.5 20t-99.5 84q-29 -14 -68.5 -32.5t-85.5 -34t-94.5 -25.5t-93.5 -10q-76 0 -142 20.5t-116.5 77.5t-80 156.5 t-29.5 259.5q0 127 18.5 228t64.5 172t124.5 108.5t199.5 37.5q31 0 69 -7t73 -17q39 -10 82 -25v31h192v-410q0 -158 6 -248t21.5 -135t41 -56t66.5 -11q43 0 75 12t54.5 56t33.5 129t11 229v37q0 180 -39 307t-121.5 208t-214 118.5t-315.5 37.5q-371 0 -554 -183 t-183 -580q0 -213 41 -360.5t130 -238t229.5 -130t336.5 -39.5q31 0 80 3t96 7q55 4 117 10l8 -186q-59 -6 -114 -11q-47 -4 -98.5 -7t-88.5 -3q-227 0 -401 45t-293 154.5t-179.5 294t-60.5 461.5zM784 494q0 -102 15.5 -166t41 -98.5t59.5 -47t71 -12.5q70 0 142.5 22.5 t121.5 45.5q-10 55 -13 129.5t-3 173.5v284q-33 8 -66 17q-29 6 -61.5 12t-59.5 6q-78 0 -126 -20.5t-74.5 -64.5t-37 -113.5t-10.5 -167.5z" />
<glyph unicode="A" horiz-adv-x="1239" d="M61 0l301 1186q27 102 95.5 167.5t193.5 65.5h164l359 -1419h-191q-27 80 -49.5 159t-46.5 160h-531l-84 -319h-211zM401 506h447l-184 737q-47 0 -72 -38t-39 -93z" />
<glyph unicode="B" horiz-adv-x="1257" d="M168 1421h522q199 0 312.5 -83t113.5 -271q0 -72 -11 -125t-32.5 -93t-53.5 -68.5t-75 -51.5q47 -18 86 -44t66.5 -63.5t43 -92t15.5 -130.5q0 -109 -30.5 -185.5t-89 -123.5t-140.5 -68.5t-182 -21.5h-543zM365 184h337q117 0 182.5 50.5t65.5 179.5q0 70 -24.5 111.5 t-61.5 64t-82 30t-86 7.5h-331v-443zM365 807h327q117 0 169 58.5t52 170.5q0 109 -57 155t-174 46h-317v-430z" />
<glyph unicode="C" horiz-adv-x="1095" d="M94 709q0 186 23.5 324t84 229.5t162 136.5t254.5 45q68 0 138.5 -8.5t128.5 -18.5q68 -10 129 -24l-6 -179q-68 8 -134 17q-55 6 -118.5 12t-112.5 6q-106 0 -173 -30.5t-104.5 -95t-51 -168t-13.5 -246.5q0 -141 12.5 -242.5t50 -167.5t105.5 -96.5t178 -30.5 q45 0 106.5 5t118.5 11q68 8 136 19l6 -180q-70 -14 -137 -25q-59 -10 -129 -17.5t-130 -7.5q-160 0 -262 47.5t-160.5 139.5t-80 229t-21.5 316z" />
<glyph unicode="D" horiz-adv-x="1304" d="M168 1421h491q164 0 269.5 -47t167 -136t86 -216t24.5 -287q0 -162 -22.5 -297t-83 -232t-167 -151.5t-271.5 -54.5h-492zM365 188h294q109 0 175.5 44t103.5 119t50 174t13 210t-13 202t-50 157.5t-103.5 102.5t-175.5 36h-294v-1045z" />
<glyph unicode="E" horiz-adv-x="1148" d="M145 399q2 72 19.5 124t45.5 90t66.5 63.5t85.5 44.5q-37 25 -67.5 55.5t-52 70.5t-33.5 93q-10 45 -10 102v19q2 92 37.5 159.5t96 111.5t141.5 66.5t175 22.5h383l-2 -184h-387q-106 0 -170.5 -53.5t-69.5 -153.5v-7q1 -101 55 -159q56 -60 165 -61h282l2 -182h-291 q-37 0 -80.5 -9.5t-83.5 -34t-68 -66.5t-28 -108v-12q0 -53 16 -91q18 -42 49.5 -66.5t75.5 -36t97 -11.5h436l4 -186h-450q-96 0 -178 22.5t-140.5 70.5t-90.5 124q-30 72 -30 170v12z" />
<glyph unicode="F" horiz-adv-x="1122" d="M168 1421h874v-190h-677v-504h555v-188h-555l2 -539h-197z" />
<glyph unicode="G" horiz-adv-x="1236" d="M106 721q0 178 27 314t90.5 226.5t166 136.5t255.5 46q76 0 158 -8.5t149 -18.5q80 -10 156 -24l-8 -176q-76 10 -150 18q-66 6 -138.5 12t-137.5 6q-109 0 -178.5 -32.5t-109.5 -100t-55.5 -171t-15.5 -244.5q0 -139 14.5 -241t53.5 -167.5t108.5 -98t178.5 -32.5 q35 0 73.5 3t73.5 7q18 2 34.5 10.5t29 29t20.5 55t8 87.5v213h-194v177h391l2 -422q0 -61 -10.5 -117.5t-34 -101t-63 -74t-97.5 -37.5q-61 -10 -128.5 -14.5t-121.5 -4.5q-158 0 -263 51.5t-168.5 148.5t-89.5 234.5t-26 309.5z" />
<glyph unicode="H" horiz-adv-x="1392" d="M168 1421h199v-606h653v606h201l2 -1421h-201l-2 625h-653l2 -625h-199z" />
<glyph unicode="I" horiz-adv-x="526" d="M162 1421h198l2 -1421h-198z" />
<glyph unicode="J" horiz-adv-x="634" d="M63 39q57 0 96.5 6t64 27.5t34.5 61.5t10 110v1177h199v-308t1 -286.5t1 -289v-310.5q0 -123 -23.5 -195.5t-72.5 -112.5t-126 -52t-184 -12v184z" />
<glyph unicode="K" horiz-adv-x="1218" d="M178 0v1419h199l-2 -635q154 6 254 56.5t159 135.5q58 86 78 198q14 80 13 169q0 37 -2 76h208q-2 -123 -14 -235.5t-46 -208.5t-95.5 -173t-161.5 -126l373 -676h-226l-331 616q-49 -10 -103.5 -14t-107.5 -4l4 -598h-199z" />
<glyph unicode="L" horiz-adv-x="1032" d="M168 1421h199v-1231h585l2 -190h-784z" />
<glyph unicode="M" horiz-adv-x="1738" d="M178 0v1180q0 51 10.5 96t32 77.5t55 50t84.5 17.5h148l354 -1149l285 918q29 102 84 165.5t158 65.5h167l3 -1421h-195l-2 1198q-14 0 -26.5 -16.5t-18.5 -38.5l-281 -897q-31 -98 -68.5 -143.5t-88.5 -49.5h-115l-358 1149q-16 0 -20.5 -19.5t-4.5 -49.5v-1133h-203z " />
<glyph unicode="N" horiz-adv-x="1423" d="M176 1421h162q86 0 150.5 -41t107.5 -151l389 -969q10 -27 25.5 -42t29.5 -11v1214h201l2 -1421h-156q-182 4 -251 184l-400 973q-20 57 -57 57l2 -1214h-203z" />
<glyph unicode="O" horiz-adv-x="1329" d="M96 702q0 176 27 314.5t91.5 234t174 144.5t273.5 49t273 -49t175 -144.5t92.5 -232.5t26.5 -316q0 -182 -26.5 -317t-92.5 -226t-174 -136.5t-274 -45.5q-164 0 -273.5 46.5t-174 138.5t-91.5 227t-27 313zM301 702q0 -133 14.5 -233t54.5 -166.5t110.5 -99.5t181.5 -33 t181 31.5t110 97.5t54.5 166t14.5 237q0 131 -15.5 233.5t-55.5 173.5t-109.5 106.5t-179.5 35.5q-111 0 -180.5 -35.5t-109.5 -105.5t-55.5 -172t-15.5 -236z" />
<glyph unicode="P" horiz-adv-x="1230" d="M168 1421h516q238 0 352.5 -115.5t114.5 -353.5t-114.5 -368.5t-352.5 -130.5h-317l2 -453h-199zM367 643h317q137 0 200.5 83t63.5 226t-63.5 211t-200.5 68h-317v-588z" />
<glyph unicode="Q" horiz-adv-x="1329" d="M104 711q0 174 28 310t92.5 230.5t171 143.5t266.5 49t266 -52.5t170.5 -150.5t92.5 -237.5t28 -313.5q0 -238 -51.5 -398.5t-180.5 -238.5q53 -129 123 -225t178 -133l-61 -158q-61 12 -122 55t-114 105.5t-99 139.5t-79 157q-33 -6 -72 -11.5t-79 -5.5 q-160 0 -267.5 49.5t-172 142.5t-91.5 229.5t-27 312.5zM313 696q0 -135 15.5 -234.5t55.5 -166t107 -99t171 -32.5q106 0 173.5 33.5t106.5 101.5t54.5 169t15.5 239q0 133 -15.5 236.5t-55.5 173t-107.5 105t-171.5 35.5t-172 -36.5t-107 -108.5t-54.5 -176.5 t-15.5 -239.5z" />
<glyph unicode="R" horiz-adv-x="1269" d="M168 1421h530q236 0 350.5 -104.5t114.5 -339.5q0 -164 -59.5 -263.5t-181.5 -148.5l252 -565h-220l-229 512h-358l2 -512h-199zM367 700h333q143 0 200.5 75t57.5 198q0 260 -260 260h-331v-533z" />
<glyph unicode="S" horiz-adv-x="1089" d="M88 1067q0 80 25.5 148.5t82 119.5t147.5 81t224 30q55 0 119 -6t122 -14.5t103 -16.5t66 -10l-14 -180l-148 16q-63 6 -136 12t-132 6q-117 0 -187.5 -47t-70.5 -137q0 -68 53 -114t133 -83.5t174 -75.5t174 -91.5t133.5 -130t53.5 -191.5q0 -78 -20.5 -150.5t-71 -130 t-138.5 -91.5t-223 -34q-57 0 -128 5.5t-136.5 13.5t-115.5 15t-68 12l18 184q16 -2 66.5 -8t114 -12.5t131 -11.5t116.5 -5t94 11.5t80 37t56.5 65.5t21.5 97q0 74 -53.5 125t-133 92t-173 80t-173 90t-133 122t-53.5 177z" />
<glyph unicode="T" horiz-adv-x="999" d="M-12 1231v190h1022v-190h-410l2 -1231h-201l-2 1231h-411z" />
<glyph unicode="U" horiz-adv-x="1310" d="M145 442v979h199v-979q0 -152 83 -209t222 -57q72 0 129.5 13.5t98.5 44t62.5 82t21.5 126.5v979h200v-979q0 -125 -33.5 -212t-98 -142t-160 -80.5t-220.5 -25.5q-121 0 -215 25.5t-158.5 80.5t-97.5 142t-33 212z" />
<glyph unicode="V" horiz-adv-x="1226" d="M59 1421h201l297 -1239q92 10 125 131l264 1108h215l-291 -1190q-59 -229 -297 -231h-157z" />
<glyph unicode="W" horiz-adv-x="1869" d="M72 1421h202l240 -1239q49 0 64 76l196 952q18 86 51 140q32 52 94 51h5h118l252 -1219q51 6 64 72l219 1167h215l-252 -1253q-18 -96 -79.5 -132t-153.5 -36h-146l-227 1135l-189 -965q-16 -78 -68 -123t-157 -47h-151z" />
<glyph unicode="X" horiz-adv-x="1189" d="M49 1421h207l322 -563l319 563h236l-408 -716l410 -705h-207l-322 555l-319 -555h-236l412 705z" />
<glyph unicode="Y" horiz-adv-x="1144" d="M31 1421h209l319 -590l315 590h236l-438 -813l2 -608h-199l-2 608z" />
<glyph unicode="Z" horiz-adv-x="1167" d="M131 1233v188h891q15 -43 15 -91q1 -30 -5 -60q-16 -82 -80 -191l-538 -809q-23 -35 -29 -52t-2 -30h649v-188h-897q-13 45 -13 89q0 46 14 90q28 87 87 179l529 793q16 25 26 44t6 38h-653z" />
<glyph unicode="[" horiz-adv-x="614" d="M72 1534h460v-188h-262v-1409h262v-189h-458z" />
<glyph unicode="\" horiz-adv-x="1107" d="M119 1378l200 88l637 -1427l-200 -84z" />
<glyph unicode="]" horiz-adv-x="614" d="M72 -63h262v1409h-262v188h460l-2 -1786h-458v189z" />
<glyph unicode="^" d="M72 657l362 695h203l371 -695h-207l-262 502l-263 -502h-204z" />
<glyph unicode="_" horiz-adv-x="1064" d="M53 -10h877v-176h-877v176z" />
<glyph unicode="`" horiz-adv-x="505" d="M-14 1380l61 172l473 -192l-57 -152z" />
<glyph unicode="a" horiz-adv-x="1073" d="M90 559q6 135 56.5 242.5t144.5 174t239 66.5q53 0 105.5 -9t89.5 -15l164 26q-2 -203 -3 -401.5t-1 -402.5q10 -45 44 -67.5t83 -31.5q-2 -41 -5 -81t-8 -80q-104 4 -165.5 28.5t-92.5 77.5q-41 -41 -113.5 -73.5t-166.5 -32.5q-74 0 -131.5 22.5t-100.5 63t-71.5 97 t-42.5 124.5q-26 115 -26 228q0 22 1 44zM270 496v-16q0 -96 23 -189q12 -57 50 -101.5t95 -44.5q43 0 85 15.5t78 39t62.5 48t38.5 43.5q-2 63 -2 125.5v128.5v309l-45 6q-25 4 -53 9q-20 4 -37 4q-7 0 -14 -1q-96 0 -156.5 -53t-91.5 -136t-33 -187z" />
<glyph unicode="b" horiz-adv-x="1112" d="M174 4v1454h193l2 -520q55 43 123.5 71.5t138.5 28.5q141 0 226 -86t116 -221q25 -109 25 -217q0 -26 -2 -53q-8 -135 -57.5 -242.5t-145 -175.5t-238.5 -68q-45 0 -101.5 3.5t-110.5 7.5t-100 9t-69 9zM367 162q41 -8 87 -13.5t81 -5.5q94 0 155.5 53.5t92 136.5 t32.5 187v17q0 95 -20 188q-14 57 -52.5 101t-95.5 44q-37 0 -78 -13t-79.5 -34.5t-70.5 -47t-50 -50.5z" />
<glyph unicode="c" horiz-adv-x="892" d="M91 559q7 135 57.5 242.5t145.5 175t241 67.5q66 0 137 -13t127 -32l-6 -161q-12 6 -42 12t-65 11t-69.5 8t-61.5 3q-96 0 -156.5 -52t-91.5 -136t-33 -188v-16q0 -95 21 -187q14 -57 52 -101.5t93 -44.5q43 0 86 16.5t82 40t69 50.5t42 45l90 -147q-20 -33 -59 -64 t-87.5 -55.5t-100.5 -38.5t-99 -14q-147 0 -232.5 87t-115.5 222q-25 110 -25 220q0 25 1 50z" />
<glyph unicode="d" horiz-adv-x="1118" d="M94 559q6 135 56.5 242.5t144.5 175t240 67.5q51 0 105 -9t103 -21v444h197v-1458h-195l3 119q-25 -29 -61 -53.5t-76 -44t-79.5 -30.5t-72.5 -11q-139 0 -224 87t-116 222q-26 113 -26 226q0 22 1 44zM274 496v-16q0 -95 21 -187q14 -57 52 -101.5t93 -44.5 q41 0 87 20.5t89 49.5t77 58.5t50 50.5v524q-41 8 -94 15t-94 7q-96 0 -156.5 -52t-91.5 -136t-33 -188z" />
<glyph unicode="e" horiz-adv-x="1038" d="M104 624q24 140 89 233t156 139t179 46q74 0 134.5 -20.5t105.5 -55t74.5 -81.5t42.5 -103q9 -36 9 -71q0 -30 -6 -60q-14 -65 -61 -131q-45 -66 -114.5 -104.5t-145 -61t-147.5 -31t-119 -10.5q0 -33 15.5 -62.5t43 -52t65.5 -35.5t81 -13q55 0 111.5 21.5t103.5 49 t82 53t47 35.5l76 -157q-12 -23 -51 -52.5t-94.5 -56.5t-124 -45t-142.5 -18q-172 0 -264 82.5t-127 232.5q-27 120 -27 220q-1 58 8 109zM289 485q68 2 148.5 19.5t146 52.5t104.5 89q27 37 27 85q0 22 -6 47q-10 47 -54 71.5t-112 24.5q-47 0 -93.5 -25.5t-83.5 -74.5 q-36 -50 -58 -122q-19 -62 -19 -139q-1 -14 0 -28z" />
<glyph unicode="f" horiz-adv-x="690" d="M51 852l2 170h115l2 78q0 205 69.5 291t217.5 86q27 0 60.5 -3.5t64.5 -7.5q37 -4 73 -8l-4 -162q-27 2 -53 4q-23 2 -50.5 3.5t-49.5 1.5q-78 0 -105.5 -49.5t-27.5 -157.5v-76h274v-170h-274v-852h-195l-2 852h-117z" />
<glyph unicode="g" horiz-adv-x="1073" d="M98 498q0 125 24.5 226t79 172t140.5 109.5t211 38.5q41 0 105.5 -4t123.5 -8q70 -6 148 -10v-397.5v-272t1 -189.5t1 -147q0 -262 -100.5 -383.5t-321.5 -121.5q-47 0 -97.5 4t-90.5 10q-49 8 -95 16q4 41 5 83t4 83q43 -4 83 -8q35 -4 74 -6t68 -2q147 0 209.5 93 t62.5 261q0 10 -1 18.5t-1 18.5q-8 -6 -31.5 -23.5t-56.5 -36t-73 -32t-78 -13.5q-106 0 -181 38t-122.5 106.5t-69 165t-21.5 211.5zM293 492q0 -170 46 -255t161 -85q41 0 84 16t78 39q39 23 77 55v598q-35 2 -69 6q-29 2 -60.5 4t-54.5 2q-72 0 -121 -28.5t-80.5 -79.5 t-46 -121t-14.5 -151z" />
<glyph unicode="h" horiz-adv-x="1153" d="M168 1458h197l-7 -534q16 18 46 39.5t68 39t85 29.5t98 12q100 0 166 -32.5t103 -96t51 -160t14 -220.5l2 -535h-196l-2 535q0 78 -4.5 140t-20.5 105t-49 65.5t-92 22.5q-92 0 -156.5 -38.5t-112.5 -79.5l7 -750h-195z" />
<glyph unicode="i" horiz-adv-x="505" d="M154 1022h194l2 -1022h-194zM154 1221v215h194v-215h-194z" />
<glyph unicode="j" horiz-adv-x="524" d="M-63 -322q72 43 117.5 76t71.5 68t36 80t10 110v1010h195v-1012q0 -98 -15.5 -167.5t-55.5 -125t-107.5 -102.5t-170.5 -98zM172 1233v213h195v-213h-195z" />
<glyph unicode="k" horiz-adv-x="1032" d="M172 1456h195l2 -840q100 4 168.5 39t112.5 90.5t65.5 127t32.5 149.5h204q-20 -203 -89.5 -320.5t-174.5 -183.5l311 -518h-211l-278 449q-39 -10 -74 -13.5t-69 -7.5l2 -428h-195z" />
<glyph unicode="l" horiz-adv-x="514" d="M158 1458h194l2 -1458h-194z" />
<glyph unicode="m" horiz-adv-x="1757" d="M176 1022h195l-2 -143q20 29 50 58.5t64.5 53t73.5 38.5t80 15q88 0 159.5 -34.5t112.5 -112.5q27 23 61 48.5t77 48t94 36.5t110 14q190 0 265 -125.5t75 -386.5l2 -532h-196l-2 526q0 82 -4.5 145.5t-21.5 106.5t-51 65.5t-95 22.5q-43 0 -82 -13t-71 -32.5t-55.5 -42 t-35.5 -43.5q0 -16 3 -69.5t5 -135.5l2 -530h-196l-2 526v18q0 157 -34 237q-36 85 -149 85q-37 0 -73.5 -17.5t-68.5 -42t-57.5 -53t-39.5 -51.5l4 -702h-195z" />
<glyph unicode="n" horiz-adv-x="1159" d="M172 1022h197l-4 -123q23 25 55.5 50.5t71 47t84 34.5t92.5 13q96 0 158.5 -32.5t99.5 -97t52 -160t15 -222.5l2 -532h-196v530q0 80 -3 142.5t-16.5 105.5t-45.5 65.5t-91 22.5q-47 0 -87 -14t-73.5 -35.5t-62.5 -48.5t-53 -51l4 -717h-197z" />
<glyph unicode="o" horiz-adv-x="1081" d="M100 537q0 119 21.5 214t73 159.5t135.5 99t211 34.5q121 0 204.5 -39.5t135 -110.5t74 -170t22.5 -218q0 -121 -20.5 -218.5t-70.5 -166t-134 -106.5t-211 -38q-129 0 -214 40t-135.5 114t-71 177.5t-20.5 228.5zM297 516q0 -88 10 -156.5t37 -115.5t74 -72t123 -25 t123 28t72.5 78t33.5 118.5t8 152.5q0 166 -51 258t-186 92q-72 0 -118 -23.5t-73.5 -69.5t-40 -112.5t-12.5 -152.5z" />
<glyph unicode="p" horiz-adv-x="1114" d="M172 -446v1468h197l-2 -88q59 45 128.5 74.5t141.5 29.5q141 0 225 -86t115 -221q26 -112 26 -223q0 -24 -1 -47q-7 -135 -57 -242.5t-145 -175.5t-239 -68q-41 0 -92 5.5t-100 15.5v-442h-197zM367 164q41 -8 89 -13.5t85 -5.5q94 0 155.5 52.5t92 136.5t32.5 186v18 q0 94 -20 187q-14 57 -52.5 101t-95.5 44q-39 0 -82 -14t-81.5 -35.5t-70.5 -47t-50 -50.5z" />
<glyph unicode="q" horiz-adv-x="1099" d="M92 559q6 135 56.5 242.5t144.5 174t239 66.5q57 0 119 -8t121 -18q41 0 82 1t82 1l-4 -1464h-193l2 548q-63 -53 -140 -87.5t-138 -34.5q-74 0 -131.5 22.5t-100.5 63t-71.5 97t-42.5 124.5q-26 115 -26 228q0 22 1 44zM272 496v-16q0 -96 23 -189q12 -57 50 -100.5 t95 -43.5q39 0 83 18.5t86 46.5t78 56.5t54 50.5v527q-41 8 -94 17t-94 9q-94 0 -155.5 -53t-92.5 -136t-33 -187z" />
<glyph unicode="r" horiz-adv-x="733" d="M162 1022h194v-152q8 8 34 33t66 52.5t95 52t123 36.5v-206q-70 -12 -125 -37t-95 -50.5t-64.5 -48t-33.5 -30.5l2 -672h-194z" />
<glyph unicode="s" horiz-adv-x="1005" d="M113 754q0 59 20.5 112.5t67.5 93t122.5 63.5t184.5 24q43 0 93 -4.5t99.5 -11.5t91.5 -15t68 -15l-4 -161q-68 8 -133 16q-57 6 -119.5 12t-111.5 6q-84 0 -136.5 -32.5t-52.5 -85.5q0 -31 18.5 -53.5t50 -39t74.5 -31t91 -28.5q68 -20 131 -44.5t112 -61.5t80 -88.5 t31 -124.5q0 -61 -18.5 -116.5t-63.5 -96.5t-121 -65.5t-188 -24.5q-51 0 -114.5 5t-123.5 11q-68 8 -137 18l8 168q72 -10 139 -18q59 -8 122 -13.5t106 -5.5q86 0 145.5 36t59.5 102q0 37 -21.5 61.5t-56.5 44t-81 33.5t-97 31q-57 18 -117 42.5t-109 59.5t-79.5 83 t-30.5 114z" />
<glyph unicode="t" horiz-adv-x="735" d="M45 848v174h137v307h193v-307h301v-174h-301v-447q0 -70 3 -115.5t16.5 -73.5t39 -40t68.5 -12q23 0 51.5 1t56.5 3q33 2 66 6l10 -168q-41 -6 -78 -12q-33 -4 -68.5 -8.5t-62.5 -4.5q-84 0 -140 17.5t-91 61.5t-49.5 117t-14.5 183v492h-137z" />
<glyph unicode="u" horiz-adv-x="1144" d="M160 489l2 533h194v-530q0 -90 5.5 -156t21.5 -107t47 -60t84 -19q43 0 85 19t79 47t64.5 57.5t41.5 50.5l-6 698h195l2 -1022h-195l2 129q-18 -23 -47.5 -49.5t-66.5 -49t-81 -38t-89 -15.5q-92 0 -157 29t-104.5 91.5t-58 159.5t-18.5 232z" />
<glyph unicode="v" horiz-adv-x="987" d="M45 1022h195l215 -856q29 4 48 21.5t27 52.5l201 782h207l-223 -846q-25 -84 -85.5 -129t-170.5 -47h-142z" />
<glyph unicode="w" horiz-adv-x="1544" d="M45 1022h186l177 -848q18 4 34.5 18.5t26.5 43.5l160 641q31 121 114 127h121l205 -830q23 2 36 17.5t21 39.5l166 791h201l-186 -862q-20 -76 -74.5 -118t-153.5 -42h-137l-174 739l-133 -573q-37 -166 -215 -166h-150z" />
<glyph unicode="x" horiz-adv-x="948" d="M49 1022h201l211 -373l211 373h221l-303 -512l305 -510h-201l-213 371l-207 -371h-221l299 510z" />
<glyph unicode="y" horiz-adv-x="989" d="M45 1022h182l193 -719q18 -61 39.5 -88t50.5 -31l227 838h203l-274 -1012q-27 -100 -60 -169.5t-85 -124t-131 -101.5t-195 -100l-48 182q82 41 135.5 70.5t88.5 60.5t56.5 71t37.5 101q-29 6 -60.5 24.5t-60.5 47t-50.5 67.5t-31.5 82z" />
<glyph unicode="z" horiz-adv-x="980" d="M119 848v174h733q13 -40 13 -78q-1 -28 -7 -54q-16 -64 -70 -134l-436 -582h506l2 -174h-729q-15 41 -15 82q0 92 72 186l435 580h-504z" />
<glyph unicode="{" horiz-adv-x="649" d="M27 557v164q119 29 159.5 78t40.5 131q0 20 -2 53t-5 70t-5 72.5t-2 64.5q0 96 23.5 162.5t73.5 109.5t127 63.5t186 24.5l2 -188q-63 -4 -103.5 -16.5t-63 -34t-30.5 -55t-8 -78.5q0 -25 2 -60t5 -70.5t5 -68.5t2 -55q0 -63 -11 -108.5t-36 -78t-63.5 -55.5t-94.5 -41 q113 -37 159 -101.5t46 -189.5q0 -51 -7 -117.5t-7 -121.5q0 -45 8 -79t30.5 -57.5t62.5 -36t104 -16.5l-2 -188q-215 8 -312.5 91t-97.5 265q0 31 2 65.5t5 69.5t5 66t2 49q0 80 -42 131t-158 86z" />
<glyph unicode="|" d="M430 -332v1827h199v-1827h-199z" />
<glyph unicode="}" horiz-adv-x="649" d="M27 -78q63 4 103 16.5t62.5 36t30.5 57.5t8 79q0 55 -6 121.5t-8 117.5q0 125 46 189.5t159 101.5q-55 18 -94 41t-63.5 55.5t-36 77.5t-11.5 109q0 23 2 55.5t5 68t5 70.5t2 60q0 45 -8 78.5t-30.5 55t-62.5 34t-103 16.5l2 188q106 -4 184 -24.5t128 -63.5t73.5 -109.5 t23.5 -162.5q0 -29 -2 -64.5t-5 -72.5t-5 -70t-2 -53q0 -82 41 -131t160 -78v-164q-117 -35 -159 -86t-42 -131q0 -18 2 -49t5 -66t5 -69.5t2 -65.5q0 -184 -96 -266t-311 -90z" />
<glyph unicode="~" d="M125 678q33 31 72 53q33 20 76.5 37.5t91.5 17.5q43 0 93 -15t101 -33.5t97 -34t83 -15.5q29 0 64 14.5t65 30.5q37 20 72 47l16 -184q-31 -33 -67 -55q-31 -20 -71 -37t-87 -17q-43 0 -95 15.5t-103.5 34t-98.5 34t-80 15.5q-35 0 -71.5 -15.5t-67.5 -31.5 q-37 -20 -72 -45z" />
<glyph unicode="&#xa1;" d="M449 -412l6 940h196l6 -940h-208zM449 752v270h208v-270h-208z" />
<glyph unicode="&#xa2;" horiz-adv-x="894" d="M61 510q0 225 97.5 329.5t269.5 114.5v232h166v-238q33 -4 65.5 -6t61.5 -6q33 -4 61 -8l-6 -170q-51 2 -98 6q-41 2 -85 4t-73 2q-72 0 -122 -13.5t-80.5 -43t-44 -79.5t-13.5 -124q0 -76 13.5 -125t44 -79t82 -41t128.5 -11q29 0 71 1t83 5q47 2 96 6l6 -170 q-31 -4 -63 -8q-29 -4 -62.5 -7t-64.5 -5v-238h-166v232q-90 4 -158.5 29.5t-114.5 76.5t-70 133t-24 201z" />
<glyph unicode="&#xa3;" d="M154 170h165v528h-135v170h135v131q0 121 25 198t70 120t105.5 59.5t133.5 16.5q39 0 84 -5.5t86 -9.5q47 -8 95 -14v-166q-49 4 -97 10q-41 4 -85 7.5t-79 3.5q-41 0 -69.5 -11.5t-46 -37t-24.5 -69.5t-7 -112v-121h338v-170h-338v-528h295l153 33l31 -166l-166 -35 l-667 -2z" />
<glyph unicode="&#xa4;" d="M68 176l145 146q-53 90 -53 193t53 194l-145 147l133 133l145 -147q90 53 193.5 53t193.5 -53l148 147l133 -133l-148 -147q53 -90 53.5 -193.5t-53.5 -193.5l148 -146l-133 -133l-148 145q-90 -53 -193.5 -53t-193.5 53l-145 -145zM338 516q0 -39 15 -76.5t44 -66.5 t67 -44.5t77 -15.5t76.5 15.5t66.5 44.5t43 66.5t14 76.5t-14 77t-43 66q-29 29 -66.5 43.5t-76.5 14.5t-77 -14.5t-67 -43.5t-44 -66.5t-15 -76.5z" />
<glyph unicode="&#xa5;" horiz-adv-x="1105" d="M12 1352h221l320 -512l315 512h224l-334 -557h248v-166h-342l-11 -39v-98h353v-166h-353l2 -326h-198l-2 326h-359v166h359v98l-11 39h-348v166h252z" />
<glyph unicode="&#xa6;" d="M428 -332v807h199v-807h-199zM428 725v811h199v-811h-199z" />
<glyph unicode="&#xa7;" d="M125 494q0 43 13.5 85t32.5 77.5t40.5 61t36.5 38.5q-45 35 -67.5 85t-22.5 142q0 176 106.5 259t302.5 83q53 0 111.5 -6t112.5 -14q59 -8 120 -21l-8 -158q-66 6 -125 15q-53 4 -107.5 9t-90.5 5q-129 0 -181.5 -39t-52.5 -131q0 -43 16.5 -69.5t52.5 -46t90 -34 t130 -30.5q84 -18 145.5 -39t100.5 -53.5t57 -81.5t18 -125q0 -41 -9 -82t-23.5 -78t-30.5 -67.5t-29 -49.5q37 -31 56.5 -75.5t19.5 -133.5q0 -186 -99.5 -270t-308.5 -84q-51 0 -114.5 5t-118.5 14q-68 8 -133 20l18 158q63 -8 125 -15q53 -6 110.5 -10t100.5 -4 q117 0 175.5 41t58.5 131q0 43 -15.5 70.5t-51.5 46t-91 32t-135 29.5q-86 18 -149.5 40t-104.5 56.5t-61.5 86t-20.5 127.5zM319 526q0 -41 11.5 -68.5t34 -46t59.5 -30.5t90 -23q61 -14 111.5 -27.5t89.5 -29.5q4 6 12 24.5t15.5 43t13.5 53.5t6 57q0 41 -12.5 67.5 t-38 45t-66.5 31t-96 24.5q-47 10 -92 19.5t-80 23.5q-4 -6 -13.5 -22.5t-19.5 -40t-17.5 -50t-7.5 -51.5z" />
<glyph unicode="&#xa8;" horiz-adv-x="505" d="M-37 1268v213h184v-213h-184zM383 1268v213h184v-213h-184z" />
<glyph unicode="&#xa9;" d="M16 887q0 115 40 215t110 174t166 117t209 43q117 0 213 -44t165.5 -119t107.5 -174.5t38 -209.5q0 -115 -38 -214.5t-107.5 -173t-167 -115.5t-213.5 -42q-111 0 -207 42t-166 115.5t-110 173t-40 212.5zM121 889q0 -90 31.5 -170t87 -139.5t132.5 -94t167 -34.5 q92 0 169.5 33.5t134 93t88.5 139.5t32 172q0 90 -32 171t-88.5 141.5t-134 95t-167.5 34.5t-167 -34.5t-133.5 -95t-88 -141.5t-31.5 -171zM293 895q0 150 56.5 229.5t195.5 79.5q35 0 62.5 -2t47.5 -4q23 -4 43 -6l-2 -158q-23 2 -45 6q-20 4 -48 6.5t-58 2.5 q-61 0 -80 -44t-19 -110q0 -70 20.5 -118t78.5 -48q63 0 106 6q23 2 45 6v-151q-20 -4 -43 -8q-20 -4 -47.5 -6.5t-60.5 -2.5q-141 0 -196.5 79t-55.5 243z" />
<glyph unicode="&#xaa;" horiz-adv-x="1060" d="M281 954q0 143 153 156l209 14v47q0 68 -25.5 90.5t-80.5 22.5q-27 0 -63 -2t-71 -6q-39 -4 -79 -6l-5 63q41 4 80 8q35 4 72 6.5t66 2.5q88 0 129 -41t41 -140v-274q8 -25 25.5 -34t49.5 -13l-4 -57q-39 2 -62.5 12t-47.5 33q-39 -14 -80 -23q-35 -10 -78 -16t-86 -6 q-63 0 -103 44t-40 119zM348 950q0 -94 82 -94q35 0 73 5t68 11q37 8 72 19v174l-199 -12q-53 -4 -74.5 -28t-21.5 -75z" />
<glyph unicode="&#xab;" horiz-adv-x="1257" d="M182 430v148l412 307v-199l-246 -178l246 -201v-201zM700 430v148l410 307v-199l-244 -178l244 -201v-201z" />
<glyph unicode="&#xac;" d="M113 537v188h854v-506h-189v318h-665z" />
<glyph unicode="&#xad;" horiz-adv-x="901" d="M133 481v189h631v-189h-631z" />
<glyph unicode="&#xae;" d="M-4 889q0 117 38 219t108.5 180t171 123t227.5 45q125 0 227 -45t175 -122t113 -180t40 -220q0 -115 -40 -218.5t-113 -181t-175 -122.5t-227 -45q-127 0 -227.5 45t-171 122.5t-108.5 180t-38 219.5zM96 889q0 -96 34 -180t94.5 -148.5t141 -101.5t175.5 -37 q94 0 175 37t141.5 100.5t95 148.5t34.5 181q0 98 -34.5 183t-95 147.5t-141.5 99.5t-175 37q-96 0 -177 -37t-140.5 -99.5t-93.5 -147.5t-34 -183zM303 565v645h229q123 0 185.5 -44t62.5 -154q0 -78 -21.5 -123t-74.5 -74l109 -250h-156l-92 232h-96v-232h-146zM446 909 h101q47 0 69.5 21.5t22.5 73.5q0 49 -26.5 70.5t-82.5 21.5h-84v-187z" />
<glyph unicode="&#xaf;" horiz-adv-x="505" d="M-47 1290v168h618v-168h-618z" />
<glyph unicode="&#xb0;" d="M203 1155q0 133 81 214t214 81t214 -81t81 -214t-81 -213t-214 -80t-214 80t-81 213zM322 1155q0 -80 48 -129t128 -49t130 49t50 129t-50 130t-130 50t-128 -50t-48 -130z" />
<glyph unicode="&#xb1;" d="M63 102v179h967v-179h-967zM63 639v178h390v258h180v-258h397v-178h-397v-254h-180v254h-390z" />
<glyph unicode="&#xb2;" horiz-adv-x="542" d="M39 979v139l170 158q49 43 74.5 76.5t25.5 72.5q0 35 -24.5 47.5t-67.5 12.5q-23 0 -50.5 -2t-53.5 -6q-31 -4 -64 -9l-6 150q37 4 76 10q33 4 71.5 7t73.5 3q115 0 163 -45t48 -147q0 -72 -30.5 -120t-90.5 -101l-108 -101h235v-145h-442z" />
<glyph unicode="&#xb3;" horiz-adv-x="542" d="M47 977l8 141q33 -4 70 -8q31 -4 65.5 -6t65.5 -2q47 0 67.5 17.5t20.5 49.5q0 41 -21.5 54.5t-60.5 13.5h-133v133h131q27 0 47.5 18.5t20.5 49.5q0 57 -82 57q-31 0 -63.5 -2t-59.5 -6q-31 -4 -60 -6l-8 137q37 4 74 10q33 4 70 7t69 3q115 0 171.5 -41t56.5 -133 q0 -35 -8.5 -60.5t-20.5 -44t-25.5 -29.5t-21.5 -15q43 -16 66.5 -48t23.5 -108q0 -104 -60.5 -152.5t-166.5 -48.5q-39 0 -80 2.5t-76 6.5q-41 4 -80 10z" />
<glyph unicode="&#xb4;" horiz-adv-x="548" d="M29 1362l473 190l67 -180l-479 -172z" />
<glyph unicode="&#xb6;" d="M14 1047q0 86 29 156.5t79 121.5t120.5 80t154.5 29h676v-154h-123l2 -1280h-170l-2 1280h-200l2 -1280h-170l-2 664h-15q-84 0 -153.5 27.5t-120.5 78.5t-79 121t-28 156z" />
<glyph unicode="&#xb7;" horiz-adv-x="507" d="M133 475v270h211v-270h-211z" />
<glyph unicode="&#xb8;" horiz-adv-x="1705" d="M770 -444l6 118q20 -2 43 -2q18 -2 40 -2h40q86 0 86 70q0 35 -21.5 48t-64.5 13h-74v201h93v-94q57 0 101 -7t73.5 -25.5t45 -51.5t15.5 -84q0 -104 -55.5 -152.5t-147.5 -48.5q-35 0 -65.5 2t-57.5 6q-31 4 -57 9z" />
<glyph unicode="&#xb9;" horiz-adv-x="542" d="M49 1470l211 148h148v-639h-160v463l-125 -84z" />
<glyph unicode="&#xba;" horiz-adv-x="1077" d="M293 1073q0 145 59 211t176 66t174.5 -65.5t57.5 -211.5q0 -145 -57.5 -213.5t-174.5 -68.5t-176 68.5t-59 213.5zM362 1073q0 -117 39 -167t127 -50t125 50t37 167t-37 164t-125 47t-127 -47t-39 -164z" />
<glyph unicode="&#xbb;" horiz-adv-x="1257" d="M143 106v201l244 201l-244 178v199l410 -307v-148zM659 106v201l246 201l-246 178v199l412 -307v-148z" />
<glyph unicode="&#xbf;" horiz-adv-x="790" d="M14 -63q0 88 28 154.5t70 117.5t91 91t91 77t70.5 72.5t28.5 80.5v78h205v-84q0 -68 -27.5 -118t-69.5 -92t-90.5 -78.5t-90 -77.5t-69.5 -88t-28 -111q0 -104 50.5 -149.5t187.5 -45.5q37 0 91 6.5t103 16.5q57 8 119 23l25 -189q-68 -16 -131 -29q-55 -10 -114.5 -19 t-100.5 -9q-223 0 -331 83t-108 290zM391 752v270h209v-270h-209z" />
<glyph unicode="&#xc0;" horiz-adv-x="1236" d="M57 0l363 1421h407l361 -1419h-201l-92 317h-553l-86 -319h-199zM317 1747l66 182l473 -192l-61 -160zM385 510h469l-182 727h-101z" />
<glyph unicode="&#xc1;" horiz-adv-x="1236" d="M57 0l363 1421h407l361 -1419h-201l-92 317h-553l-86 -319h-199zM352 1772l473 190l68 -180l-479 -172zM385 510h469l-182 727h-101z" />
<glyph unicode="&#xc2;" horiz-adv-x="1236" d="M57 0l363 1421h407l361 -1419h-201l-92 317h-553l-86 -319h-199zM279 1614l260 319h155l262 -319h-211l-127 158l-129 -158h-210zM385 510h469l-182 727h-101z" />
<glyph unicode="&#xc3;" horiz-adv-x="1239" d="M61 0l301 1186q27 102 95.5 167.5t193.5 65.5h164l359 -1419h-191q-27 80 -49.5 159t-46.5 160h-531l-84 -319h-211zM248 1735q31 33 63 57q29 23 64 41t69 18q41 0 84 -15t84 -32.5t76 -33t57 -15.5q16 0 43 12.5t52 28.5q29 18 57 41l43 -149q-29 -33 -61 -58 q-29 -23 -62 -39t-67 -16q-37 0 -80 15.5t-84 33.5t-79 33.5t-63 15.5q-20 0 -45.5 -13t-50.5 -30q-29 -20 -57 -43zM401 506h447l-184 737q-47 0 -72 -38t-39 -93z" />
<glyph unicode="&#xc4;" horiz-adv-x="1236" d="M57 0l363 1421h409l359 -1419h-199l-94 317h-553l-84 -319h-201zM354 1677v213h187v-213h-187zM385 510h471l-184 727h-101zM776 1677v213h187v-213h-187z" />
<glyph unicode="&#xc5;" horiz-adv-x="1236" d="M57 0l349 1368q-45 57 -46 139q0 111 76 171.5t187 60.5t187.5 -60.5t76.5 -171.5q0 -82 -47 -139l348 -1366h-201l-92 317h-553l-86 -319h-199zM385 510h469l-182 727h-101zM514 1507q0 -70 72 -86h76q72 16 71 86q0 43 -28.5 67.5t-81.5 24.5q-51 0 -80 -24.5 t-29 -67.5z" />
<glyph unicode="&#xc6;" horiz-adv-x="1839" d="M88 0l430 1421h1231v-190h-678v-412h555v-188h-555v-441h678l2 -190h-874l-3 319h-487l-96 -319h-203zM438 510h436l3 721h-218z" />
<glyph unicode="&#xc7;" horiz-adv-x="1099" d="M94 709q0 186 23.5 324t84 229.5t162 136.5t254.5 45q68 0 138.5 -8.5t128.5 -18.5q68 -10 129 -24l-6 -179q-68 8 -134 17q-55 6 -118.5 12t-112.5 6q-106 0 -173 -30.5t-104.5 -95t-51 -168t-13.5 -246.5q0 -141 12.5 -242.5t50 -167.5t105.5 -96.5t178 -30.5 q45 0 106.5 5t118.5 11q68 8 136 19l6 -180q-63 -12 -129 -23q-55 -10 -122 -17t-126 -10v-69q57 0 101 -7t74 -25.5t45 -51.5t15 -84q0 -104 -55 -152.5t-147 -48.5q-35 0 -66 2t-57 6q-31 4 -58 9l7 118q20 -2 43 -2q18 -2 39.5 -2h39.5q86 0 87 70q0 35 -21.5 48 t-65.5 13h-73v181q-137 10 -225.5 61t-138.5 143.5t-68.5 223.5t-18.5 299z" />
<glyph unicode="&#xc8;" horiz-adv-x="1148" d="M168 1421h874v-190h-677v-426h555v-187h-555v-428h677l2 -190h-874zM330 1747l65 182l473 -192l-61 -160z" />
<glyph unicode="&#xc9;" horiz-adv-x="1171" d="M174 1421h875v-190h-678v-426h555v-187h-555v-428h678l2 -190h-875zM360 1772l474 190l67 -180l-479 -172z" />
<glyph unicode="&#xca;" horiz-adv-x="1171" d="M174 1421h875v-190h-678v-426h555v-187h-555v-428h678l2 -190h-875zM291 1614l260 319h156l262 -319h-211l-127 158l-129 -158h-211z" />
<glyph unicode="&#xcb;" horiz-adv-x="1171" d="M174 1421h875v-190h-678v-426h555v-187h-555v-428h678l2 -190h-875zM324 1677v213h186v-213h-186zM745 1677v213h185v-213h-185z" />
<glyph unicode="&#xcc;" horiz-adv-x="526" d="M-57 1747l63 182l473 -192l-61 -160zM162 1421h198l2 -1421h-198z" />
<glyph unicode="&#xcd;" horiz-adv-x="526" d="M8 1751l473 191l68 -181l-479 -172zM162 1421h198l2 -1421h-198z" />
<glyph unicode="&#xce;" horiz-adv-x="526" d="M-94 1628l268 285h176l271 -285h-222l-135 131l-135 -131h-223zM162 1421h198l2 -1421h-198z" />
<glyph unicode="&#xcf;" horiz-adv-x="526" d="M-43 1663v213h182v-213h-182zM162 1421h198l2 -1421h-198zM387 1663v213h186v-213h-186z" />
<glyph unicode="&#xd0;" horiz-adv-x="1304" d="M39 608v191h129v622h491q164 0 269.5 -47t167 -136t86 -216t24.5 -287q0 -162 -22.5 -297t-83 -232t-167 -151.5t-271.5 -54.5h-492l-2 608h-129zM365 188h294q109 0 175.5 44t103.5 119t50 174t13 210t-13 202t-50 157.5t-103.5 102.5t-175.5 36h-294v-434h297v-191 h-297v-420z" />
<glyph unicode="&#xd1;" horiz-adv-x="1406" d="M156 1421h336l507 -1179h39v1179h201l2 -1421h-328l-520 1180h-39l2 -1180h-198zM340 1804q31 33 66 58q29 23 63.5 41t69.5 18q39 0 83 -15.5t85 -33t75.5 -32.5t57.5 -15q16 0 41.5 12t50.5 29q29 18 59 41l43 -150q-29 -33 -61 -57q-29 -23 -62.5 -39t-68.5 -16 q-37 0 -79 15t-84 33.5t-79 34t-61 15.5q-20 0 -46 -13.5t-51 -29.5q-29 -20 -59 -43z" />
<glyph unicode="&#xd2;" horiz-adv-x="1343" d="M104 702q0 176 27 314.5t91.5 234t174 144.5t273.5 49t273.5 -49t175 -144.5t92 -232.5t26.5 -316q0 -182 -26.5 -317t-92 -226t-174 -136.5t-274.5 -45.5q-164 0 -273.5 46.5t-174 138.5t-91.5 227t-27 313zM309 702q0 -133 14.5 -233t54.5 -166.5t110.5 -99.5 t181.5 -33t181.5 31.5t110 97.5t54 166t14.5 237q0 131 -15.5 233.5t-55 173.5t-109.5 106.5t-180 35.5q-111 0 -180.5 -35.5t-109.5 -105.5t-55.5 -172t-15.5 -236zM379 1747l65 182l474 -192l-62 -160z" />
<glyph unicode="&#xd3;" horiz-adv-x="1343" d="M104 702q0 176 27 314.5t91.5 234t174 144.5t273.5 49t273.5 -49t175 -144.5t92 -232.5t26.5 -316q0 -182 -26.5 -317t-92 -226t-174 -136.5t-274.5 -45.5q-164 0 -273.5 46.5t-174 138.5t-91.5 227t-27 313zM309 702q0 -133 14.5 -233t54.5 -166.5t110.5 -99.5 t181.5 -33t181.5 31.5t110 97.5t54 166t14.5 237q0 131 -15.5 233.5t-55 173.5t-109.5 106.5t-180 35.5q-111 0 -180.5 -35.5t-109.5 -105.5t-55.5 -172t-15.5 -236zM381 1772l473 190l68 -180l-480 -172z" />
<glyph unicode="&#xd4;" horiz-adv-x="1343" d="M104 702q0 176 27 314.5t91.5 234t174 144.5t273.5 49t273.5 -49t175 -144.5t92 -232.5t26.5 -316q0 -182 -26.5 -317t-92 -226t-174 -136.5t-274.5 -45.5q-164 0 -273.5 46.5t-174 138.5t-91.5 227t-27 313zM309 702q0 -133 14.5 -233t54.5 -166.5t110.5 -99.5 t181.5 -33t181.5 31.5t110 97.5t54 166t14.5 237q0 131 -15.5 233.5t-55 173.5t-109.5 106.5t-180 35.5q-111 0 -180.5 -35.5t-109.5 -105.5t-55.5 -172t-15.5 -236zM328 1614l260 319h155l263 -319h-211l-127 158l-129 -158h-211z" />
<glyph unicode="&#xd5;" horiz-adv-x="1329" d="M96 702q0 176 27 314.5t91.5 234t174 144.5t273.5 49t273 -49t175 -144.5t92.5 -232.5t26.5 -316q0 -182 -26.5 -317t-92.5 -226t-174 -136.5t-274 -45.5q-164 0 -273.5 46.5t-174 138.5t-91.5 227t-27 313zM301 702q0 -133 14.5 -233t54.5 -166.5t110.5 -99.5t181.5 -33 t181 31.5t110 97.5t54.5 166t14.5 237q0 131 -15.5 233.5t-55.5 173.5t-109.5 106.5t-179.5 35.5q-111 0 -180.5 -35.5t-109.5 -105.5t-55.5 -172t-15.5 -236zM346 1694q31 33 64 57q29 23 63.5 41t69.5 18q41 0 84 -15t84 -32.5t75.5 -33t57.5 -15.5q16 0 42.5 12.5 t51.5 28.5q29 18 57 41l43 -149q-29 -33 -61 -58q-29 -23 -61.5 -39t-67.5 -16q-37 0 -80 15.5t-84 34t-79 33.5t-62 15q-20 0 -46 -13t-51 -30q-29 -20 -57 -43z" />
<glyph unicode="&#xd6;" horiz-adv-x="1343" d="M104 702q0 176 27 314.5t91.5 234t174 144.5t273.5 49t273.5 -49t174 -144.5t91 -232.5t26.5 -316q0 -182 -26.5 -317t-91 -226t-174 -136.5t-273.5 -45.5q-166 0 -274.5 46.5t-173 138.5t-91.5 227t-27 313zM309 702q0 -133 14.5 -233t54.5 -166.5t110.5 -99.5 t181.5 -33t180.5 31.5t109 97.5t55 166t15.5 237q0 131 -15.5 233.5t-55 173.5t-110.5 106.5t-179 35.5q-111 0 -180.5 -35.5t-109.5 -105.5t-55.5 -172t-15.5 -236zM358 1677v213h187v-213h-187zM778 1677v213h187v-213h-187z" />
<glyph unicode="&#xd7;" horiz-adv-x="1333" d="M358 184l377 387l-377 383l129 127l373 -385l375 385l129 -127l-377 -383l379 -387l-129 -125l-377 383l-375 -383z" />
<glyph unicode="&#xd8;" horiz-adv-x="1329" d="M96 702q0 176 27 314.5t91.5 234t174 144.5t273.5 49q66 0 123 -8.5t106 -24.5l113 238l180 -68l-127 -270q96 -92 134 -245t38 -364q0 -182 -26.5 -317t-92.5 -226t-174 -136.5t-274 -45.5q-61 0 -114.5 7.5t-101.5 19.5l-118 -254l-176 78l124 266q-100 88 -140 239.5 t-40 368.5zM301 702q0 -135 15.5 -236t56.5 -167l434 930q-63 23 -145 22q-111 0 -180.5 -35.5t-109.5 -105.5t-55.5 -172.5t-15.5 -235.5zM530 184q56 -14 132 -14q111 0 181 31.5t110 97.5t54.5 166t14.5 237q0 127 -14.5 225.5t-51.5 170.5z" />
<glyph unicode="&#xd9;" horiz-adv-x="1310" d="M145 442v979h199v-979q0 -152 83 -209t222 -57q72 0 129.5 13.5t98.5 44t62.5 82t21.5 126.5v979h200v-979q0 -125 -33.5 -212t-98 -142t-160 -80.5t-220.5 -25.5q-121 0 -215 25.5t-158.5 80.5t-97.5 142t-33 212zM180 1747l66 182l473 -192l-62 -160z" />
<glyph unicode="&#xda;" horiz-adv-x="1314" d="M152 442v979h198v-979q0 -152 83 -209t222 -57q72 0 129.5 13.5t98.5 44t62.5 82t21.5 126.5v979h200v-979q0 -125 -33.5 -212t-98 -142t-160 -80.5t-220.5 -25.5q-121 0 -215 25.5t-158.5 80.5t-97 142t-32.5 212zM373 1772l473 190l67 -180l-479 -172z" />
<glyph unicode="&#xdb;" horiz-adv-x="1314" d="M152 442v979h198v-979q0 -152 83 -209t222 -57q72 0 129.5 13.5t98.5 44t62.5 82t21.5 126.5v979h200v-979q0 -125 -33.5 -212t-98 -142t-160 -80.5t-220.5 -25.5q-121 0 -215 25.5t-158.5 80.5t-97 142t-32.5 212zM319 1614l261 319h155l262 -319h-211l-127 158 l-129 -158h-211z" />
<glyph unicode="&#xdc;" horiz-adv-x="1314" d="M152 442v979h198v-979q0 -152 83 -209t222 -57q72 0 129.5 13.5t98.5 44t62.5 82t21.5 126.5v979h200v-979q0 -125 -33.5 -212t-98 -142t-160 -80.5t-220.5 -25.5q-121 0 -215 25.5t-158.5 80.5t-97 142t-32.5 212zM399 1677v213h187v-213h-187zM821 1677v213h185v-213 h-185z" />
<glyph unicode="&#xdd;" horiz-adv-x="1105" d="M12 1421h221l320 -590l315 590h224l-439 -813l2 -608h-198l-2 608zM244 1772l473 190l67 -180l-479 -172z" />
<glyph unicode="&#xde;" horiz-adv-x="1155" d="M109 1421h200v-221h316q238 0 354.5 -113.5t116.5 -351.5t-117 -371t-354 -133h-316l2 -231h-200zM309 424h316q139 0 202.5 83t63.5 228q0 141 -63.5 209t-202.5 68h-316v-588z" />
<glyph unicode="&#xdf;" horiz-adv-x="1253" d="M164 1102q0 104 25.5 177t79 117t132 63.5t187.5 19.5q225 0 323.5 -70t98.5 -231q0 -109 -42 -168.5t-126 -94.5q-78 -35 -103.5 -51t-25.5 -45q0 -14 5 -25.5t23.5 -26.5t55.5 -35.5t100 -53.5q70 -37 120 -66.5t81.5 -60.5t46 -66.5t14.5 -85.5q0 -117 -23.5 -196.5 t-80 -128.5t-149.5 -70.5t-234 -21.5q-29 0 -65 5t-68 11q-37 8 -76 16l8 156q49 -2 88 -4q35 -2 66.5 -3t46.5 -1q86 0 142 12t88 38t44 66.5t12 96.5q0 16 -8 31.5t-31.5 34t-64.5 42t-106 54.5q-72 35 -117 64.5t-72 59t-37 63.5t-10 77q0 84 41 131t125 82 q43 18 68.5 35.5t40 36t18.5 38t4 41.5q0 78 -52 106.5t-169 28.5q-111 0 -171.5 -43t-60.5 -170l2 -1087h-192z" />
<glyph unicode="&#xe0;" horiz-adv-x="1073" d="M90 559q6 135 56.5 242.5t144.5 174t239 66.5q53 0 105.5 -9t89.5 -15l164 26q-2 -203 -3 -401.5t-1 -402.5q10 -45 44 -67.5t83 -31.5q-2 -41 -5 -81t-8 -80q-104 4 -165.5 28.5t-92.5 77.5q-41 -41 -113.5 -73.5t-166.5 -32.5q-74 0 -131.5 22.5t-100.5 63t-71.5 97 t-42.5 124.5q-31 137 -25 272zM152 1380l63 172l473 -192l-57 -152zM270 495.5q-2 -104.5 23 -204.5q12 -57 50 -101.5t95 -44.5q43 0 85 15.5t78 39t62.5 48t38.5 43.5q-2 63 -2 125.5v128.5v309l-45 6q-25 4 -52.5 9t-51.5 3q-96 0 -156.5 -53t-91.5 -136t-33 -187.5z" />
<glyph unicode="&#xe1;" horiz-adv-x="1073" d="M90 559q6 135 56.5 242.5t144.5 174t239 66.5q53 0 105.5 -9t89.5 -15l164 26q-2 -203 -3 -401.5t-1 -402.5q10 -45 44 -67.5t83 -31.5q-2 -41 -5 -81t-8 -80q-104 4 -165.5 28.5t-92.5 77.5q-41 -41 -113.5 -73.5t-166.5 -32.5q-74 0 -131.5 22.5t-100.5 63t-71.5 97 t-42.5 124.5q-31 137 -25 272zM270 495.5q-2 -104.5 23 -204.5q12 -57 50 -101.5t95 -44.5q43 0 85 15.5t78 39t62.5 48t38.5 43.5q-2 63 -2 125.5v128.5v309l-45 6q-25 4 -52.5 9t-51.5 3q-96 0 -156.5 -53t-91.5 -136t-33 -187.5zM412 1362l471 190l67 -180l-479 -172z " />
<glyph unicode="&#xe2;" horiz-adv-x="1073" d="M90 559q6 135 56.5 242.5t144.5 174t239 66.5q53 0 105.5 -9t89.5 -15l164 26q-2 -203 -3 -401.5t-1 -402.5q10 -45 44 -67.5t83 -31.5q-2 -41 -5 -81t-8 -80q-104 4 -165.5 28.5t-92.5 77.5q-41 -41 -113.5 -73.5t-166.5 -32.5q-74 0 -131.5 22.5t-100.5 63t-71.5 97 t-42.5 124.5q-31 137 -25 272zM199 1204l258 320h155l262 -320h-210l-127 158l-129 -158h-209zM270 495.5q-2 -104.5 23 -204.5q12 -57 50 -101.5t95 -44.5q43 0 85 15.5t78 39t62.5 48t38.5 43.5q-2 63 -2 125.5v128.5v309l-45 6q-25 4 -52.5 9t-51.5 3q-96 0 -156.5 -53 t-91.5 -136t-33 -187.5z" />
<glyph unicode="&#xe3;" horiz-adv-x="1073" d="M90 559q6 135 56.5 242.5t144.5 174t239 66.5q53 0 105.5 -9t89.5 -15l164 26q-2 -203 -3 -401.5t-1 -402.5q10 -45 44 -67.5t83 -31.5q-2 -41 -5 -81t-8 -80q-104 4 -165.5 28.5t-92.5 77.5q-41 -41 -113.5 -73.5t-166.5 -32.5q-74 0 -131.5 22.5t-100.5 63t-71.5 97 t-42.5 124.5q-31 137 -25 272zM201 1395q31 33 63 57q29 23 63.5 41t69.5 18q41 0 84 -15t84 -32.5t76 -33t57 -15.5q16 0 43 12.5t52 28.5q29 18 57 41l43 -149q-29 -33 -62 -58q-29 -23 -61.5 -39t-67.5 -16q-37 0 -79.5 15.5t-83.5 34t-79 33.5t-63 15q-20 0 -45.5 -13 t-50.5 -30q-29 -20 -57 -43zM270 495.5q-2 -104.5 23 -204.5q12 -57 50 -101.5t95 -44.5q43 0 85 15.5t78 39t62.5 48t38.5 43.5q-2 63 -2 125.5v128.5v309l-45 6q-25 4 -52.5 9t-51.5 3q-96 0 -156.5 -53t-91.5 -136t-33 -187.5z" />
<glyph unicode="&#xe4;" horiz-adv-x="1073" d="M90 559q6 135 56.5 242.5t144.5 174t239 66.5q53 0 105.5 -9t89.5 -15l164 26q-2 -203 -3 -401.5t-1 -402.5q10 -45 44 -67.5t83 -31.5q-2 -41 -5 -81t-8 -80q-104 4 -165.5 28.5t-92.5 77.5q-41 -41 -113.5 -73.5t-166.5 -32.5q-74 0 -131.5 22.5t-100.5 63t-71.5 97 t-42.5 124.5q-31 137 -25 272zM207 1268v213h184v-213h-184zM270 495.5q-2 -104.5 23 -204.5q12 -57 50 -101.5t95 -44.5q43 0 85 15.5t78 39t62.5 48t38.5 43.5q-2 63 -2 125.5v128.5v309l-45 6q-25 4 -52.5 9t-51.5 3q-96 0 -156.5 -53t-91.5 -136t-33 -187.5zM627 1268 v213h184v-213h-184z" />
<glyph unicode="&#xe5;" horiz-adv-x="1073" d="M90 559q6 135 56.5 242.5t144.5 174t239 66.5q53 0 105.5 -9t89.5 -15l164 26q-2 -203 -3 -401.5t-1 -402.5q10 -45 44 -67.5t83 -31.5q-2 -41 -5 -81t-8 -80q-104 4 -165.5 28.5t-92.5 77.5q-41 -41 -113.5 -73.5t-166.5 -32.5q-74 0 -131.5 22.5t-100.5 63t-71.5 97 t-42.5 124.5q-31 137 -25 272zM270 495.5q-2 -104.5 23 -204.5q12 -57 50 -101.5t95 -44.5q43 0 85 15.5t78 39t62.5 48t38.5 43.5q-2 63 -2 125.5v128.5v309l-45 6q-25 4 -52.5 9t-51.5 3q-96 0 -156.5 -53t-91.5 -136t-33 -187.5zM348 1386q0 45 17.5 86t47 71t70.5 47.5 t88 17.5q45 0 86 -17.5t71 -47.5t47.5 -70.5t17.5 -86.5q0 -47 -17.5 -88t-47.5 -70.5t-71 -46t-86 -16.5q-96 0 -159.5 62.5t-63.5 158.5zM483 1386q0 -39 26 -64.5t64 -25.5q35 0 60.5 26t25.5 64q0 37 -25.5 63t-60.5 26q-39 0 -64.5 -26t-25.5 -63z" />
<glyph unicode="&#xe6;" horiz-adv-x="1695" d="M106 299q0 86 24 142.5t70 91t114.5 52t158.5 25.5l250 21v74q0 78 -41 116.5t-113 38.5q-57 0 -124.5 -3t-127.5 -7q-70 -6 -139 -10l-8 170q72 8 145 16q61 6 133 12t132 6q201 0 272 -122q53 66 131 94t174 28q211 0 316.5 -112.5t105.5 -360.5l-12 -141h-652 q2 -139 56.5 -206.5t191.5 -67.5q59 0 126 2t122 6q66 4 129 10l4 -154q-70 -14 -139 -22q-59 -8 -131 -14.5t-137 -6.5q-104 0 -179 27t-127 80l-59 -27q-16 -6 -51 -19t-85 -26.5t-112.5 -24t-130.5 -10.5q-141 0 -214 84t-73 238zM303 303q0 -158 125 -158 q47 0 101.5 8.5t100.5 19.5t77.5 20.5t37.5 11.5q-16 59 -21 126.5t-5 147.5l-260 -20q-78 -6 -117 -42t-39 -114zM915 582h471q0 160 -53 225t-176 65t-182.5 -68.5t-59.5 -221.5z" />
<glyph unicode="&#xe7;" horiz-adv-x="892" d="M91 559q7 135 57.5 242.5t145.5 175t241 67.5q66 0 137 -13t127 -32l-6 -161q-12 6 -42 12t-65 11t-69.5 8t-61.5 3q-96 0 -156.5 -52t-91.5 -136t-33 -187.5t21 -203.5q14 -57 52 -101.5t93 -44.5q43 0 86 16.5t82 40t69 50.5t42 45l90 -147q-16 -27 -45 -52.5 t-64.5 -47t-76.5 -38t-82 -24.5l-2 -82q57 0 101 -7t73.5 -25.5t45 -51.5t15.5 -84q0 -104 -55 -152.5t-148 -48.5q-35 0 -65.5 2t-56.5 6q-31 4 -58 9l6 118q20 -2 43 -2q18 -2 40 -2h40q86 0 86 70q0 35 -21.5 48t-64.5 13h-74l3 179q-139 4 -221.5 90t-112.5 219 q-31 135 -24 270z" />
<glyph unicode="&#xe8;" horiz-adv-x="1038" d="M96 1358l64 172l473 -193l-58 -151zM104.5 623.5q24.5 140.5 89 233.5t155.5 139t179 46q74 0 134.5 -20.5t105.5 -55t74.5 -81.5t42.5 -103q16 -66 2.5 -131t-60.5 -131q-45 -66 -114.5 -104.5t-145 -61t-147.5 -31t-119 -10.5q0 -33 15.5 -62.5t43 -52t65.5 -35.5 t81 -13q55 0 111.5 21.5t103.5 49t82 53t47 35.5l76 -157q-12 -23 -51 -52.5t-94.5 -56.5t-124 -45t-142.5 -18q-172 0 -264 82.5t-127 232.5q-43 188 -18.5 328.5zM289 485q68 2 148.5 19.5t146 52.5t104.5 89t21 132q-10 47 -54 71.5t-112 24.5q-47 0 -93.5 -25.5 t-83 -74.5t-59 -121.5t-18.5 -167.5z" />
<glyph unicode="&#xe9;" horiz-adv-x="1038" d="M104.5 623.5q24.5 140.5 89 233.5t155.5 139t179 46q74 0 134.5 -20.5t105.5 -55t74.5 -81.5t42.5 -103q16 -66 2.5 -131t-60.5 -131q-45 -66 -114.5 -104.5t-145 -61t-147.5 -31t-119 -10.5q0 -33 15.5 -62.5t43 -52t65.5 -35.5t81 -13q55 0 111.5 21.5t103.5 49t82 53 t47 35.5l76 -157q-12 -23 -51 -52.5t-94.5 -56.5t-124 -45t-142.5 -18q-172 0 -264 82.5t-127 232.5q-43 188 -18.5 328.5zM289 485q68 2 148.5 19.5t146 52.5t104.5 89t21 132q-10 47 -54 71.5t-112 24.5q-47 0 -93.5 -25.5t-83 -74.5t-59 -121.5t-18.5 -167.5zM432 1329 l471 191l68 -181l-479 -172z" />
<glyph unicode="&#xea;" horiz-adv-x="1038" d="M104.5 623.5q24.5 140.5 89 233.5t155.5 139t179 46q74 0 134.5 -20.5t105.5 -55t74.5 -81.5t42.5 -103q16 -66 2.5 -131t-60.5 -131q-45 -66 -114.5 -104.5t-145 -61t-147.5 -31t-119 -10.5q0 -33 15.5 -62.5t43 -52t65.5 -35.5t81 -13q55 0 111.5 21.5t103.5 49t82 53 t47 35.5l76 -157q-12 -23 -51 -52.5t-94.5 -56.5t-124 -45t-142.5 -18q-172 0 -264 82.5t-127 232.5q-43 188 -18.5 328.5zM193 1188l258 319h155l262 -319h-211l-127 158l-129 -158h-208zM289 485q68 2 148.5 19.5t146 52.5t104.5 89t21 132q-10 47 -54 71.5t-112 24.5 q-47 0 -93.5 -25.5t-83 -74.5t-59 -121.5t-18.5 -167.5z" />
<glyph unicode="&#xeb;" horiz-adv-x="1038" d="M104.5 623.5q24.5 140.5 89 233.5t155.5 139t179 46q74 0 134.5 -20.5t105.5 -55t74.5 -81.5t42.5 -103q16 -66 2.5 -131t-60.5 -131q-45 -66 -114.5 -104.5t-145 -61t-147.5 -31t-119 -10.5q0 -33 15.5 -62.5t43 -52t65.5 -35.5t81 -13q55 0 111.5 21.5t103.5 49t82 53 t47 35.5l76 -157q-12 -23 -51 -52.5t-94.5 -56.5t-124 -45t-142.5 -18q-172 0 -264 82.5t-127 232.5q-43 188 -18.5 328.5zM236 1241v213h184v-213h-184zM289 485q68 2 148.5 19.5t146 52.5t104.5 89t21 132q-10 47 -54 71.5t-112 24.5q-47 0 -93.5 -25.5t-83 -74.5 t-59 -121.5t-18.5 -167.5zM655 1241v213h185v-213h-185z" />
<glyph unicode="&#xec;" horiz-adv-x="534" d="M-12 1380l61 172l473 -192l-57 -152zM172 1022h195l2 -1022h-195z" />
<glyph unicode="&#xed;" horiz-adv-x="534" d="M43 1362l473 190l68 -180l-480 -172zM172 1022h195l2 -1022h-195z" />
<glyph unicode="&#xee;" horiz-adv-x="542" d="M-76 1204l258 320h156l262 -320h-211l-127 158l-129 -158h-209zM172 1022h195l2 -1022h-195z" />
<glyph unicode="&#xef;" horiz-adv-x="534" d="M-41 1268v213h184v-213h-184zM172 1022h195l2 -1022h-195zM379 1268v213h186v-213h-186z" />
<glyph unicode="&#xf0;" d="M68 463q0 96 30.5 175t88 134t137 85t178.5 30q55 0 111.5 -10.5t101.5 -22.5q53 -14 100 -33q-10 119 -71.5 210t-211.5 161l-217 -162l-84 115l144 104q-47 14 -97.5 26.5t-107.5 24.5l33 166q195 -31 346 -86l201 148l81 -115l-135 -100q160 -92 243 -235.5t83 -360.5 q0 -195 -27.5 -334t-87 -228t-151.5 -131t-224 -42q-223 0 -343.5 122.5t-120.5 358.5zM274 463q0 -141 62.5 -221t195.5 -80q74 0 126.5 25.5t87 84t52 151.5t17.5 226q-45 18 -96 33q-43 12 -96.5 22.5t-108.5 10.5q-115 0 -177.5 -74t-62.5 -178z" />
<glyph unicode="&#xf1;" horiz-adv-x="1175" d="M176 1022h193v-59q49 23 100 41q43 16 95 28t100 12q106 0 174.5 -29.5t107.5 -92t54.5 -158.5t15.5 -229l2 -535h-195l-2 532q0 86 -7 149.5t-26.5 103.5t-57.5 59.5t-99 19.5q-43 0 -89 -10t-85 -20q-45 -14 -88 -31l2 -803h-193zM250 1395q31 33 65 57q29 23 64 41 t70 18q39 0 82.5 -15t84.5 -32.5t76 -33t58 -15.5q16 0 41.5 12.5t50.5 28.5q29 18 59 41l43 -149q-29 -33 -61 -58q-29 -23 -63 -39t-68 -16q-37 0 -79 15.5t-84 34t-79 33.5t-61 15q-20 0 -46 -13t-51 -30q-29 -20 -59 -43z" />
<glyph unicode="&#xf2;" horiz-adv-x="1081" d="M90 520q0 129 23.5 226.5t76 164t138.5 100t213 33.5q242 0 344 -135t102 -389q0 -129 -20.5 -230.5t-71.5 -170t-137 -105.5t-217 -37t-218 35t-138.5 104.5t-73 170t-21.5 233.5zM270 1380l64 172l473 -192l-57 -152zM287 520q0 -96 10 -164.5t37.5 -113.5t77 -66.5 t129.5 -21.5t128 22.5t75.5 68.5t37 114.5t9.5 160.5q0 184 -56.5 267t-193.5 83q-74 0 -123 -19.5t-78 -61t-41 -108.5t-12 -161z" />
<glyph unicode="&#xf3;" horiz-adv-x="1081" d="M90 520q0 129 23.5 226.5t76 164t138.5 100t213 33.5q242 0 344 -135t102 -389q0 -129 -20.5 -230.5t-71.5 -170t-137 -105.5t-217 -37t-218 35t-138.5 104.5t-73 170t-21.5 233.5zM260 1362l473 190l68 -180l-479 -172zM287 520q0 -96 10 -164.5t37.5 -113.5t77 -66.5 t129.5 -21.5t128 22.5t75.5 68.5t37 114.5t9.5 160.5q0 184 -56.5 267t-193.5 83q-74 0 -123 -19.5t-78 -61t-41 -108.5t-12 -161z" />
<glyph unicode="&#xf4;" horiz-adv-x="1081" d="M90 520q0 129 23.5 226.5t76 164t138.5 100t213 33.5q242 0 344 -135t102 -389q0 -129 -20.5 -230.5t-71.5 -170t-137 -105.5t-217 -37t-218 35t-138.5 104.5t-73 170t-21.5 233.5zM193 1204l260 320h155l262 -320h-211l-127 158l-129 -158h-210zM287 520 q0 -96 10 -164.5t37.5 -113.5t77 -66.5t129.5 -21.5t128 22.5t75.5 68.5t37 114.5t9.5 160.5q0 184 -56.5 267t-193.5 83q-74 0 -123 -19.5t-78 -61t-41 -108.5t-12 -161z" />
<glyph unicode="&#xf5;" horiz-adv-x="1081" d="M90 520q0 129 23.5 226.5t76 164t138.5 100t213 33.5q242 0 344 -135t102 -389q0 -129 -20.5 -230.5t-71.5 -170t-137 -105.5t-217 -37t-218 35t-138.5 104.5t-73 170t-21.5 233.5zM186 1395q31 33 66 57q29 23 63.5 41t69.5 18q39 0 83 -15t85 -32.5t76 -33t57 -15.5 q16 0 43 12.5t51 28.5q29 18 58 41l43 -149q-29 -33 -62 -58q-29 -23 -62.5 -39t-68.5 -16q-37 0 -79 15.5t-84 34t-78.5 33.5t-61.5 15q-20 0 -46 -13t-50 -30q-29 -20 -60 -43zM287 520q0 -96 10 -164.5t37.5 -113.5t77 -66.5t129.5 -21.5t128 22.5t75.5 68.5t37 114.5 t9.5 160.5q0 184 -56.5 267t-193.5 83q-74 0 -123 -19.5t-78 -61t-41 -108.5t-12 -161z" />
<glyph unicode="&#xf6;" horiz-adv-x="1081" d="M90 520q0 129 23.5 226.5t76 164t138.5 100t213 33.5q242 0 344 -135t102 -389q0 -129 -20.5 -230.5t-71.5 -170t-137 -105.5t-217 -37t-218 35t-138.5 104.5t-73 170t-21.5 233.5zM231 1268v213h185v-213h-185zM287 520q0 -96 10 -164.5t37.5 -113.5t77 -66.5 t129.5 -21.5t128 22.5t75.5 68.5t37 114.5t9.5 160.5q0 184 -56.5 267t-193.5 83q-74 0 -123 -19.5t-78 -61t-41 -108.5t-12 -161zM651 1268v213h187v-213h-187z" />
<glyph unicode="&#xf7;" d="M100 487v197h875v-197h-875zM440 104v230h197v-230h-197zM440 838v227h197v-227h-197z" />
<glyph unicode="&#xf8;" horiz-adv-x="1081" d="M90 520q0 129 23.5 226.5t76 164t138.5 100t213 33.5q37 0 71.5 -3t65.5 -11l86 211l123 -45l-86 -213q98 -59 142 -176t44 -287q0 -129 -20.5 -230.5t-71.5 -170t-137 -105.5t-217 -37q-41 0 -78 4.5t-70 10.5l-88 -217l-123 45l90 217q-104 61 -143 182t-39 301z M287 520q0 -111 13 -185.5t54 -119.5l258 647q-26 8 -71 8q-74 0 -123 -19.5t-78 -61t-41 -108.5t-12 -161zM459 160q37 -6 82 -6q80 0 128 22.5t75.5 68.5t37 114.5t9.5 160.5q0 100 -16.5 170t-53.5 113z" />
<glyph unicode="&#xf9;" horiz-adv-x="1144" d="M147 489v533h195v-530q0 -94 5 -159t25.5 -105t57.5 -57t102 -17q43 0 87.5 9t80.5 21q43 12 84 31v807h195l2 -1022h-195l-2 59q-47 -23 -96 -41q-41 -16 -92 -28.5t-98 -12.5q-109 0 -177.5 28t-107.5 89.5t-52.5 158.5t-13.5 236zM225 1370l72 180l471 -190l-70 -172z " />
<glyph unicode="&#xfa;" horiz-adv-x="1144" d="M147 489v533h195v-530q0 -94 5 -159t25.5 -105t57.5 -57t102 -17q43 0 87.5 9t80.5 21q43 12 84 31v807h195l2 -1022h-195l-2 59q-47 -23 -96 -41q-41 -16 -92 -28.5t-98 -12.5q-109 0 -177.5 28t-107.5 89.5t-52.5 158.5t-13.5 236zM289 1362l473 190l67 -180l-479 -172 z" />
<glyph unicode="&#xfb;" horiz-adv-x="1144" d="M147 489v533h195v-530q0 -94 5 -159t25.5 -105t57.5 -57t102 -17q43 0 87.5 9t80.5 21q43 12 84 31v807h195l2 -1022h-195l-2 59q-47 -23 -96 -41q-41 -16 -92 -28.5t-98 -12.5q-109 0 -177.5 28t-107.5 89.5t-52.5 158.5t-13.5 236zM195 1204l260 320h155l262 -320h-210 l-127 158l-129 -158h-211z" />
<glyph unicode="&#xfc;" horiz-adv-x="1144" d="M147 489v533h195v-530q0 -94 5 -159t25.5 -105t57.5 -57t102 -17q43 0 87.5 9t80.5 21q43 12 84 31v807h195l2 -1022h-195l-2 59q-47 -23 -96 -41q-41 -16 -92 -28.5t-98 -12.5q-109 0 -177.5 28t-107.5 89.5t-52.5 158.5t-13.5 236zM272 1268v213h187v-213h-187z M694 1268v213h185v-213h-185z" />
<glyph unicode="&#xfd;" horiz-adv-x="989" d="M45 1022h182l193 -719q18 -61 39.5 -88t50.5 -31l227 838h203l-274 -1012q-27 -100 -60 -169.5t-85 -124t-131 -101.5t-195 -100l-48 182q82 41 135.5 70.5t88.5 60.5t56.5 71t37.5 101q-29 6 -60.5 24.5t-60.5 47t-50.5 67.5t-31.5 82zM225 1362l471 190l68 -180 l-479 -172z" />
<glyph unicode="&#xfe;" horiz-adv-x="1101" d="M203 -446v1904h194v-475q41 16 88 31q39 10 88.5 20t96.5 10q104 0 178 -27.5t120 -90t67.5 -160.5t21.5 -240q0 -156 -24.5 -261t-83 -168.5t-153 -91.5t-231.5 -28q-39 0 -83 3.5t-85 5.5v-432h-194zM397 164q35 -4 66 -6q27 -2 54.5 -3t45.5 -1q94 0 151.5 21.5 t90.5 66.5t44 115.5t11 168.5q0 184 -48 262t-165 78q-43 0 -87 -7t-81 -15q-43 -8 -82 -21v-659z" />
<glyph unicode="&#xff;" horiz-adv-x="989" d="M45 1022h182l193 -719q18 -61 39.5 -88t50.5 -31l227 838h203l-274 -1012q-27 -100 -60 -169.5t-85 -124t-131 -101.5t-195 -100l-48 182q82 41 135.5 70.5t88.5 60.5t56.5 71t37.5 101q-29 6 -60.5 24.5t-60.5 47t-50.5 67.5t-31.5 82zM193 1268v213h184v-213h-184z M612 1268v213h185v-213h-185z" />
<glyph unicode="&#x152;" horiz-adv-x="1933" d="M121 707q0 190 26.5 329.5t89 229.5t166 134t256.5 44q57 0 136 -6t137 -17h866v-192h-670v-410h547v-190h-547v-436h670l2 -193h-862q-63 -10 -142 -16.5t-137 -6.5q-164 0 -268 46.5t-163.5 137.5t-83 227t-23.5 319zM326 709q0 -143 14 -246t54 -167.5t110.5 -94 t185.5 -29.5q16 0 47 2t65 4t68.5 5t61.5 5v1043q-27 2 -61.5 5t-69.5 6t-67 5t-50 2q-106 0 -176 -29.5t-110 -94t-56 -167t-16 -249.5z" />
<glyph unicode="&#x153;" horiz-adv-x="1794" d="M119 520q0 129 23.5 226.5t75.5 164t138 100t213 33.5q250 0 351 -163q53 88 139 125.5t196 37.5q213 0 318.5 -112.5t105.5 -360.5l-12 -141h-651q0 -139 54.5 -206.5t193.5 -67.5q59 0 125.5 2t121.5 6q66 4 129 10l5 -154q-70 -14 -140 -22q-59 -8 -130.5 -14.5 t-137.5 -6.5q-121 0 -200 38t-126 110q-49 -74 -131 -111t-211 -37q-131 0 -218 35t-138 104.5t-72.5 170t-21.5 233.5zM315 520q0 -96 10.5 -164.5t38 -113.5t76.5 -66.5t129 -21.5t128 22.5t76 68.5t37 114.5t9 160.5q0 184 -56 267t-194 83q-74 0 -123 -19.5t-77.5 -61 t-41 -108.5t-12.5 -161zM1014 582h473q0 160 -54.5 225t-177.5 65q-121 0 -181 -68.5t-60 -221.5z" />
<glyph unicode="&#x178;" horiz-adv-x="1144" d="M31 1421h221l319 -590l316 590h223l-438 -813l2 -608h-199l-2 608zM262 1663v213h184v-213h-184zM694 1663v213h187v-213h-187z" />
<glyph unicode="&#x2c6;" horiz-adv-x="505" d="M-63 1204l258 320h155l262 -320h-211l-127 158l-129 -158h-208z" />
<glyph unicode="&#x2dc;" horiz-adv-x="505" d="M-72 1395q31 33 64 57q29 23 63.5 41t69.5 18q41 0 84 -15t84 -32.5t75.5 -33t57.5 -15.5q16 0 43 12.5t51 28.5q29 18 58 41l43 -149q-29 -33 -62 -58q-29 -23 -61.5 -39t-67.5 -16q-37 0 -80 15.5t-84 34t-78.5 33.5t-62.5 15q-20 0 -46 -13t-50 -30q-29 -20 -58 -43z " />
<glyph unicode="&#x2000;" horiz-adv-x="981" />
<glyph unicode="&#x2001;" horiz-adv-x="1962" />
<glyph unicode="&#x2002;" horiz-adv-x="981" />
<glyph unicode="&#x2003;" horiz-adv-x="1962" />
<glyph unicode="&#x2004;" horiz-adv-x="654" />
<glyph unicode="&#x2005;" horiz-adv-x="490" />
<glyph unicode="&#x2006;" horiz-adv-x="327" />
<glyph unicode="&#x2007;" horiz-adv-x="327" />
<glyph unicode="&#x2008;" horiz-adv-x="245" />
<glyph unicode="&#x2009;" horiz-adv-x="392" />
<glyph unicode="&#x200a;" horiz-adv-x="109" />
<glyph unicode="&#x2010;" horiz-adv-x="901" d="M133 481v189h631v-189h-631z" />
<glyph unicode="&#x2011;" horiz-adv-x="901" d="M133 481v189h631v-189h-631z" />
<glyph unicode="&#x2012;" horiz-adv-x="901" d="M133 481v189h631v-189h-631z" />
<glyph unicode="&#x2013;" horiz-adv-x="1024" d="M0 469v176h1022v-176h-1022z" />
<glyph unicode="&#x2014;" horiz-adv-x="2048" d="M0 469v176h2046v-176h-2046z" />
<glyph unicode="&#x2018;" horiz-adv-x="348" d="M0 1014l111 467h184l-94 -467h-201z" />
<glyph unicode="&#x2019;" horiz-adv-x="348" d="M47 1016l94 467h201l-111 -467h-184z" />
<glyph unicode="&#x201a;" horiz-adv-x="413" d="M33 -229l108 467h185l-95 -467h-198z" />
<glyph unicode="&#x201c;" horiz-adv-x="880" d="M156 1014l110 467h185l-95 -467h-200zM485 1014l111 467h184l-94 -467h-201z" />
<glyph unicode="&#x201d;" horiz-adv-x="890" d="M154 1016l94 467h201l-111 -467h-184zM483 1016l95 467h200l-110 -467h-185z" />
<glyph unicode="&#x201e;" horiz-adv-x="817" d="M33 -229l108 467h185l-95 -467h-198zM426 -229l111 467h184l-94 -467h-201z" />
<glyph unicode="&#x2022;" d="M291 213v582h500v-582h-500z" />
<glyph unicode="&#x2026;" horiz-adv-x="1523" d="M152 270h210l3 -270h-211zM674 270h209l2 -270h-209zM1194 270h211l2 -270h-211z" />
<glyph unicode="&#x202f;" horiz-adv-x="392" />
<glyph unicode="&#x2039;" horiz-adv-x="700" d="M127 430v148l412 307v-199l-246 -178l246 -201v-201z" />
<glyph unicode="&#x203a;" horiz-adv-x="700" d="M158 119v200l243 201l-243 178v199l411 -307v-148z" />
<glyph unicode="&#x205f;" horiz-adv-x="490" />
<glyph unicode="&#x20ac;" horiz-adv-x="1163" d="M86 434v156h115v172h-115v156h125q14 121 47 207.5t91.5 144t147.5 84t216 26.5q68 0 133 -6t117 -14q59 -8 112 -19l-8 -178q-59 4 -117 11q-49 4 -106.5 8t-106.5 4q-80 0 -136 -15.5t-93 -48t-57.5 -84t-30.5 -123.5h512v-153h-524q-2 -20 -2 -42v-44v-44.5t2 -41.5 h524v-156h-512q10 -68 30.5 -118t57.5 -81.5t94 -47t139 -15.5q45 0 100.5 3t106.5 7q57 6 119 13l6 -181q-57 -10 -119 -18q-53 -8 -117.5 -13.5t-123.5 -5.5q-131 0 -220.5 28t-147.5 85t-90 142t-44 202h-125z" />
<glyph unicode="&#x2122;" d="M12 1178v122h410v-122h-119v-498h-135v498h-156zM481 678v622h168l119 -393l127 393h166v-622h-127v426l-115 -391h-96l-115 391v-426h-127z" />
<glyph unicode="&#x25fc;" horiz-adv-x="1024" d="M0 0v1024h1024v-1024h-1024z" />
</font>
</defs>
</svg>
